ExtraTorrent - The Largest Bittorent System Login   |    Register
Latest Articles
Most searched
Hot torrents
Movie Torrents
View Torrent Info: The Spy Who Dumped Me (2018) [720p] [YTS] [YIFY]
View Torrent Info: The Spy Who Dumped Me (2018) [720p] [YTS] [YIFY]
View Torrent Info: Slender Man (2018) [720p] [YTS] [YIFY]
View Torrent Info: The Night Comes for Us (2018) [720p] [YTS] [YIFY]
View Torrent Info: Blindspotting (2018) [720p] [YTS] [YIFY]
View Torrent Info: Malicious (2018) [720p] [YTS] [YIFY]
View Torrent Info: Illang: The Wolf Brigade (2018) [720p] [YTS] [YIFY]
View Torrent Info: Galveston (2018) [720p] [YTS] [YIFY]
View Torrent Info: Satyameva Jayate (2018) [720p] [YTS] [YIFY]
View Torrent Info: Sanju (2018) [720p] [YTS] [YIFY]
Hot torrents
TV Torrents
View Torrent Info: Arrow.S07E01.HDTV.x264-SVA[eztv]
View Torrent Info: The.Flash.2014.S05E02.HDTV.x264-SVA[eztv]
View Torrent Info: Manifest.S01E04.HDTV.x264-KILLERS[eztv]
View Torrent Info: Supergirl.S04E01.HDTV.x264-SVA[eztv]
View Torrent Info: FBI.S01E04.HDTV.x264-SVA[eztv]
View Torrent Info: Blindspot.S04E02.HDTV.x264-SVA[eztv]
View Torrent Info: How.to.Get.Away.with.Murder.S05E04.HDTV.x264-KILLERS[eztv]
View Torrent Info: Magnum.P.I.2018.S01E04.HDTV.x264-SVA[eztv]
View Torrent Info: Modern.Family.S10E04.HDTV.x264-PHOENiX[eztv]
View Torrent Info: SEAL.Team.S02E03.HDTV.x264-PHOENiX[eztv]
ExtraTorrent > Categories > Movies torrents > Dubbed /Dual Audio torrents


Browse Movies torrents

Poseidon (2006) 1080p Bluray x264 {Dual Audio} [Hindi Org DD 2.0 English DD 5.1] [email protected] torrent


Download torrent: Download Poseidon (2006) 1080p Bluray x264 {Dual Audio} [Hindi Org DD 2.0 English DD 5.1] By~Hammer@Hon3yHD torrent Magnet link Bookmark Torrent: Poseidon (2006) 1080p Bluray x264 {Dual Audio} [Hindi Org DD 2.0 English DD 5.1] By~Hammer@Hon3yHD Poseidon (2006) 1080p Bluray x264 {Dual Audio} [Hindi Org DD 2.0 English DD 5.1] [email protected] torrent | if not working, try instead: Magnet Link
Info hash: 38BA5332A5437E7EC317C535901C5E720C229AF9
Category: Categories > Movies torrents > Dubbed /Dual Audio torrents
Trackers:
15    View all torrent trackers >
Health:
 seeds: 21 ,  leechers: 21 |  Update >
Total Size: 3.80 GB
Torrent status: Added by trusted uploader Added by trusted uploader Trusted Uploader Site Friend Superman Sun
Uploader: Trusted Uploader Site Friend Superman Sun
Torrent added: 2018-08-10 17:49:37
 

Download Poseidon (2006) 1080p Bluray x264 {Dual Audio} [Hindi Org DD 2.0 English DD 5.1] By~Hammer@Hon3yHD torrent if not working, try downloading torrent using Download Poseidon (2006) 1080p Bluray x264 {Dual Audio} [Hindi Org DD 2.0 English DD 5.1] By~Hammer@Hon3yHD via Magnet Link




Torrent Description








Format : Matroska
Format version : Version 4 / Version 2
File size : 3.85 GiB
Duration : 1 h 38 min
Overall bit rate : 5 607 kb/s
Movie name : Poseidon (2006) 1080p Bluray x264 {Dual Audio} [Hindi Org DD 2.0 English DD 5.1] [email protected]
Bit rate : 5 000 kb/s
Width : 1 920 pixels
Height : 800 pixels
Display aspect ratio : 2.40:1
Frame rate mode : Constant
Frame rate : 23.976 (24000/1001) FPS
Title : [email protected]
Language : English
Default : Yes
Forced : No

Audio #1
Format : AC-3
Format/Info : Audio Coding 3
Codec ID : A_AC3
Duration : 1 h 38 min
Bit rate mode : Constant
Bit rate : 224 kb/s
Channel(s) : 2 channels
Channel positions : Front: L R
Sampling rate : 48.0 kHz
Frame rate : 31.250 FPS (1536 SPF)
Bit depth : 16 bits
Compression mode : Lossy
Stream size : 157 MiB (4%)
Title : Hindi Org VCD DD 2.0 @224 kbps By~Hammer~
Language : Hindi
Default : Yes
Forced : Yes

Audio #2
Format : AC-3
Format/Info : Audio Coding 3
Codec ID : A_AC3
Duration : 1 h 38 min
Bit rate mode : Constant
Bit rate : 384 kb/s
Channel(s) : 6 channels
Channel positions : Front: L C R, Side: L R, LFE
Sampling rate : 48.0 kHz
Frame rate : 31.250 FPS (1536 SPF)
Bit depth : 16 bits
Compression mode : Lossy
Stream size : 270 MiB (7%)
Title : Eng Org DD 5.1 @384 kbps By~Hammer~
Language : English
Default : No
Forced : No










Enjoy & Keep Seeding



#Hon3yHD -> To avoid fakes, ALWAYS check that the torrent was added on ExtraTorrent by Hon3yHD

https://extratorrent.nocensor.bid/



Download Poseidon (2006) 1080p Bluray x264 {Dual Audio} [Hindi Org DD 2.0 English DD 5.1] By~Hammer@Hon3yHD torrent


Comments (please add your comment)
1
posted by Flobie (2018-08-10 20:00:28)
Flobie avatar thx





Home - Browse Torrents - Upload Torrent - Stat - Forum - FAQ - Login
ExtraTorrent is in compliance with copyrights
2006-2018 ExtraTorrent